<?xml version="1.0" standalone="no"?>
<!DOCTYPE svg PUBLIC "-//W3C//DTD SVG 1.1//EN" "http://www.w3.org/Graphics/SVG/1.1/DTD/svg11.dtd" >
<svg xmlns="http://www.w3.org/2000/svg">
<metadata></metadata>
<defs>
<font id="novecento_sans_widedemibold" horiz-adv-x="668" >
<font-face units-per-em="1000" ascent="821" descent="-179" />
<missing-glyph horiz-adv-x="250" />
<glyph horiz-adv-x="1000" />
<glyph horiz-adv-x="1000" />
<glyph unicode="&#xd;" horiz-adv-x="1000" />
<glyph unicode=" "  horiz-adv-x="250" />
<glyph unicode="&#x09;" horiz-adv-x="250" />
<glyph unicode="&#xa0;" horiz-adv-x="250" />
<glyph unicode="!" horiz-adv-x="319" d="M229 700v-513h-139v513h139zM160 -9q-36 0 -56 19.5t-20 49.5t20 49.5t56 19.5t55.5 -19.5t19.5 -49.5t-20 -49.5t-55 -19.5z" />
<glyph unicode="&#x22;" horiz-adv-x="427" d="M180 700l-7 -244h-116l-7 244h130zM376 700l-8 -244h-115l-8 244h131z" />
<glyph unicode="#" horiz-adv-x="665" d="M483 204h76l-34 -121h-76l-22 -83h-115l23 83h-113l-22 -83h-114l22 83h-77l34 121h76l41 152h-76l34 122h75l22 82h114l-22 -82h112l22 82h115l-22 -82h77l-33 -122h-77zM296 356l-40 -152h111l41 152h-112z" />
<glyph unicode="$" horiz-adv-x="493" d="M463 160q0 -71 -43.5 -114t-118.5 -54v-82h-99v82q-149 19 -172 148l119 32q5 -35 31.5 -59t73.5 -24q37 0 58.5 16.5t21.5 47.5q0 16 -6.5 28t-14 19.5t-25 14.5t-28.5 10t-36 9t-36 9q-68 18 -108.5 53t-40.5 109q0 70 40.5 111.5t114.5 51.5v82h99v-83 q134 -18 164 -135l-114 -31q-15 71 -100 71q-41 0 -61 -17t-20 -44q0 -24 16 -39.5t36 -22t67 -18.5q32 -8 50 -13.5t47 -19.5t44.5 -30t28 -44t12.5 -64z" />
<glyph unicode="%" horiz-adv-x="736" d="M171 224q-138 0 -138 173q0 174 138 174q137 0 137 -174q0 -173 -137 -173zM503 560l-188 -560h-84l188 560h84zM171 313q25 0 37 17.5t12 66.5t-12 66.5t-37 17.5q-26 0 -38 -17.5t-12 -66.5t12 -66.5t38 -17.5zM566 -6q-138 0 -138 174q0 173 138 173q136 0 136 -173 q0 -174 -136 -174zM565 83q25 0 37 18t12 67t-12 66.5t-37 17.5t-37 -17.5t-12 -66.5t11.5 -67t37.5 -18z" />
<glyph unicode="&#x26;" horiz-adv-x="620" d="M510 226v-45q0 -94 -61 -143t-177 -49q-113 0 -170.5 44.5t-57.5 119.5q0 52 26.5 87.5t68.5 46.5v2q-37 9 -64 42t-27 88q0 77 55 114.5t154 37.5q191 0 248 -144l-121 -33q-26 69 -114 69q-87 0 -87 -58q0 -63 94 -63h317v-116h-84zM378 226h-107q-93 0 -93 -65 q0 -66 96 -66q55 0 79.5 20t24.5 66v45z" />
<glyph unicode="'" horiz-adv-x="232" d="M180 700l-7 -244h-116l-7 244h130z" />
<glyph unicode="(" horiz-adv-x="394" d="M337 795l36 -128q-188 -60 -188 -379q0 -321 188 -380l-36 -128q-286 98 -286 508q0 409 286 507z" />
<glyph unicode=")" horiz-adv-x="394" d="M57 -219l-35 128q187 59 187 379q0 158 -44.5 253.5t-142.5 126.5l35 127q286 -95 286 -507q0 -409 -286 -507z" />
<glyph unicode="*" horiz-adv-x="472" d="M305 509l66 -88l-72 -52l-63 90l-63 -90l-72 52l65 88l-103 31l27 84l102 -33l-1 109h89v-109l102 33l27 -84z" />
<glyph unicode="+" d="M533 226h-138v-151h-121v151h-139v114h139l-1 150h121l1 -150h138v-114z" />
<glyph unicode="," horiz-adv-x="264" d="M110 10q-23 -2 -37.5 13t-14.5 41q0 27 20 45t51 18q37 0 60 -23.5t23 -65.5q0 -45 -29.5 -84t-80.5 -54l-52 56q46 13 60 54z" />
<glyph unicode="-" horiz-adv-x="574" d="M486 226h-398v114h398v-114z" />
<glyph unicode="." horiz-adv-x="264" d="M132 -9q-36 0 -56 19.5t-20 49.5t20 49.5t56 19.5t55.5 -19.5t19.5 -49.5t-20 -49.5t-55 -19.5z" />
<glyph unicode="/" horiz-adv-x="525" d="M508 700l-347 -700h-145l351 700h141z" />
<glyph unicode="0" horiz-adv-x="534" d="M267 571q108 0 170 -74t62 -217t-62 -217t-170 -74q-109 0 -170.5 74t-61.5 217t61.5 217t170.5 74zM267 450q-53 0 -77 -40t-24 -130t24 -130.5t77 -40.5q52 0 76.5 40.5t24.5 130.5t-24.5 130t-76.5 40z" />
<glyph unicode="1" horiz-adv-x="378" d="M177 0v297q0 19 1 47.5t2 45.5l1 18h-3l-6 -8q-6 -7 -15 -17t-15 -15l-36 -35l-76 95l156 132h123v-560h-132z" />
<glyph unicode="2" horiz-adv-x="505" d="M46 0v143l194 137q50 37 70.5 60.5t20.5 50.5q0 30 -21.5 49.5t-62.5 19.5q-74 0 -85 -67l-124 33q16 76 74 110.5t143 34.5q101 0 155 -45.5t54 -127.5q0 -68 -35.5 -109t-110.5 -88l-123 -83l1 -4q36 3 85 3h186v-117h-421z" />
<glyph unicode="3" horiz-adv-x="509" d="M359 294v-4q49 -5 82 -39.5t33 -93.5q0 -77 -57 -122.5t-156 -45.5q-89 0 -149 40.5t-77 117.5l115 32q19 -78 106 -78q43 0 66.5 20.5t23.5 53.5t-23.5 50t-64.5 17h-62v93h57q41 0 64 17.5t23 48.5q0 30 -22.5 47t-61.5 17q-83 0 -92 -70l-118 31q31 145 221 145 q99 0 150.5 -38.5t51.5 -107.5q0 -61 -34 -93.5t-76 -37.5z" />
<glyph unicode="4" horiz-adv-x="549" d="M431 0h-132v128h-266v116l198 316h200v-321h81v-111h-81v-128zM299 239v86v27.5v27.5t0.5 25.5t0.5 22v17v11.5v5h-5l-141 -219l3 -3h76h66z" />
<glyph unicode="5" horiz-adv-x="509" d="M178 340l3 -2q36 27 96 27q91 0 142.5 -50.5t51.5 -131.5q0 -87 -58.5 -140.5t-157.5 -53.5q-86 0 -143.5 40t-73.5 103l113 28q9 -27 35 -44.5t65 -17.5q44 0 70 23t26 62q0 40 -26.5 62.5t-72.5 22.5q-61 0 -86 -39l-107 28l55 303h325v-123h-239l-9 -51l-4 -22 t-3.5 -17t-1.5 -7z" />
<glyph unicode="6" horiz-adv-x="511" d="M206 332l3 -3q32 30 88 30q77 0 130 -49t53 -128q0 -87 -61.5 -140t-163.5 -53q-100 0 -162.5 53t-62.5 150q0 55 23 106.5t71 112.5l118 149h139zM257 100q45 0 71.5 23.5t26.5 63.5q1 40 -25.5 62.5t-72.5 22.5q-45 0 -71.5 -23t-26.5 -63t26.5 -63t71.5 -23z" />
<glyph unicode="7" horiz-adv-x="499" d="M477 465l-262 -465h-135l178 315q16 27 34 57.5t28 46.5l9 16l-2 3l-76 -1h-221v123h447v-95z" />
<glyph unicode="8" horiz-adv-x="515" d="M35 154q0 59 34 94.5t83 46.5v2q-31 6 -62 38.5t-31 86.5q0 63 54 106t144 43t144 -43t54 -106q0 -54 -31 -86.5t-61 -38.5v-2q47 -11 82.5 -46t35.5 -95q0 -72 -57.5 -119t-164.5 -47q-105 0 -164.5 46.5t-59.5 119.5zM173 414q0 -32 23.5 -49t60.5 -16q39 0 62 17.5 t23 48.5t-23.5 48t-61.5 17t-61 -17.5t-23 -48.5zM160 163q0 -37 26.5 -56.5t70.5 -19.5q45 0 71 20t26 56t-26.5 55t-70.5 19t-70.5 -19.5t-26.5 -54.5z" />
<glyph unicode="9" horiz-adv-x="517" d="M311 222l-3 3q-29 -29 -88 -29q-83 0 -134 51t-51 129q0 86 63.5 140.5t161.5 54.5q96 0 161 -54t65 -150q0 -51 -19 -98.5t-39 -74t-54 -64.5l-114 -130h-147zM258 459q-44 0 -72 -22.5t-28 -64.5q0 -44 27.5 -65.5t72.5 -21.5t72 22t27 66q0 42 -27 64t-72 22z" />
<glyph unicode=":" horiz-adv-x="264" d="M132 326q-36 0 -56 19.5t-20 50.5q0 30 20 49t56 19t55.5 -19t19.5 -49t-19.5 -50t-55.5 -20zM132 -9q-36 0 -56 19.5t-20 49.5t20 49.5t56 19.5t55.5 -19.5t19.5 -49.5t-20 -49.5t-55 -19.5z" />
<glyph unicode=";" horiz-adv-x="264" d="M132 326q-36 0 -56 19.5t-20 50.5q0 30 20 49t56 19t55.5 -19t19.5 -49t-19.5 -50t-55.5 -20zM110 11q-23 -2 -37.5 13t-14.5 41q0 27 20 45t51 18q37 0 60 -24t23 -65q0 -44 -29.5 -83.5t-80.5 -55.5l-52 57q46 13 60 54z" />
<glyph unicode="&#x3c;" d="M546 35l-451 202v92l451 202v-119l-296 -128v-3l296 -127v-119z" />
<glyph unicode="=" d="M533 336h-398v115h398v-115zM533 121h-398v114h398v-114z" />
<glyph unicode="&#x3e;" d="M418 281v3l-296 128v119l451 -202v-92l-451 -202v119z" />
<glyph unicode="?" horiz-adv-x="572" d="M209 187v173q109 35 150 65t41 68q0 37 -25.5 63t-83.5 26q-54 0 -83.5 -22.5t-44.5 -66.5l-132 36q23 86 92.5 135.5t172.5 49.5q115 0 180 -58t65 -144q0 -146 -192 -216v-109h-140zM279 -9q-36 0 -56 19.5t-20 49.5t20 49.5t56 19.5t55.5 -19.5t19.5 -49.5t-20 -49.5 t-55 -19.5z" />
<glyph unicode="@" horiz-adv-x="792" d="M579 429v-184v-13q0 -22 0.5 -32t3.5 -22.5t11 -17.5t21 -5q50 0 50 116q0 127 -69.5 201t-195.5 74q-127 0 -200 -77.5t-73 -207.5q0 -150 69 -216.5t177 -66.5q29 0 55 4t43 9t32.5 12.5t23 12.5t16 12.5t9.5 7.5l74 -57q-31 -31 -97 -60t-152 -29q-155 0 -250.5 91.5 t-95.5 282.5q0 160 103 265t263 105q167 0 265.5 -103t98.5 -263q0 -93 -41 -153t-124 -60q-42 0 -75.5 19t-46.5 43h-2q-12 -26 -42.5 -44t-70.5 -18q-72 0 -120 48.5t-48 141.5q0 95 44.5 145t116.5 50q55 0 93 -38h2v27h132zM383 164q60 0 64 79v10q0 36 -17 57t-47 21 q-63 0 -63 -84q0 -39 17 -61t46 -22z" />
<glyph unicode="A" horiz-adv-x="749" d="M531 140h-315l-53 -140h-147l280 700h157l280 -700h-149zM482 266l-58 154q-9 24 -22 56.5t-20 49.5l-7 17h-3q-1 -1 -49 -123l-59 -154h218z" />
<glyph unicode="B" horiz-adv-x="629" d="M464 377v-4q57 -15 97 -58t40 -114q0 -88 -63.5 -144.5t-183.5 -56.5h-291v700h285q93 0 152.5 -52t59.5 -127q0 -57 -29.5 -94t-66.5 -50zM202 416h122q43 0 69.5 22.5t26.5 61.5q0 37 -26.5 60.5t-72.5 23.5h-119v-168zM202 116h140q53 0 83 25.5t30 70.5 q0 46 -31.5 72.5t-81.5 26.5h-140v-195z" />
<glyph unicode="C" horiz-adv-x="756" d="M588 240l137 -36q-40 -101 -129 -159t-203 -58q-157 0 -259.5 101.5t-102.5 263.5q0 160 102.5 261t259.5 101q117 0 202.5 -55.5t121.5 -142.5l-138 -38q-62 105 -192 105q-97 0 -156.5 -63.5t-59.5 -168.5q0 -106 60.5 -169.5t154.5 -63.5q71 0 123.5 33.5t78.5 88.5z " />
<glyph unicode="D" horiz-adv-x="744" d="M63 700h280q160 0 264.5 -97.5t104.5 -255.5q0 -157 -104 -252t-263 -95h-282v700zM202 129h135q100 0 167.5 55t67.5 163t-68.5 166t-168.5 58h-133v-442z" />
<glyph unicode="E" horiz-adv-x="609" d="M63 0v700h497v-129h-358v-147h269v-130h-269v-165h362v-129h-501z" />
<glyph unicode="F" horiz-adv-x="590" d="M553 571h-351v-167h275v-130h-275v-274h-139v700h490v-129z" />
<glyph unicode="G" horiz-adv-x="783" d="M734 0h-124v38t0.5 21t0.5 8h-3q-32 -32 -90 -56t-127 -24q-151 0 -255.5 101.5t-104.5 262.5t103 262t260 101q115 0 201.5 -56t121.5 -142l-137 -38q-24 42 -71 73.5t-121 31.5q-98 0 -157.5 -63.5t-59.5 -168.5q0 -106 64 -169.5t167 -63.5q73 0 127 28t75 62v55h-186 v130h316v-393z" />
<glyph unicode="H" horiz-adv-x="712" d="M510 0v292h-308v-292h-139v700h139v-274h308v274h139v-700h-139z" />
<glyph unicode="I" horiz-adv-x="265" d="M63 0v700h139v-700h-139z" />
<glyph unicode="J" horiz-adv-x="507" d="M450 700v-399q0 -152 -67.5 -233t-198.5 -81q-118 0 -184 72l80 108q39 -49 103 -49q73 0 100 46t27 148v388h140z" />
<glyph unicode="K" horiz-adv-x="686" d="M511 0l-212 318l-97 -106v-212h-139v700h139v-202v-122h3l88 100l196 224h166l-253 -282l271 -418h-162z" />
<glyph unicode="L" horiz-adv-x="567" d="M63 0v700h139v-571h332v-129h-471z" />
<glyph unicode="M" horiz-adv-x="812" d="M610 0v219v46.5v43.5t0.5 39t0.5 35v29.5t0.5 23.5t0.5 17.5v11.5v4h-2l-10 -17q-9 -18 -28 -53t-38 -69l-88 -157h-79l-88 155q-20 35 -39 70.5t-28 53.5l-9 17h-3v-4v-11.5t0.5 -17.5t0.5 -23.5v-29.5t0.5 -35t0.5 -39v-43.5v-46.5v-219h-139v700h148l196 -351h3 l197 351h142v-700h-139z" />
<glyph unicode="N" horiz-adv-x="742" d="M538 0l-335 468h-3v-5q0 -5 0.5 -14.5t0.5 -21.5v-27.5t0.5 -32t0.5 -36v-37.5v-294h-139v700h141l335 -461h3v5q0 6 -0.5 15t-0.5 21v27t-0.5 30.5t-0.5 33v33.5v296h139v-700h-141z" />
<glyph unicode="O" horiz-adv-x="797" d="M31 350q0 161 104 262.5t263 101.5t263 -101.5t104 -262.5q0 -160 -104 -261.5t-263 -101.5t-263 101.5t-104 261.5zM171 350q0 -105 64 -168.5t163 -63.5t163 63.5t64 168.5t-64 169t-163 64t-163 -64t-64 -169z" />
<glyph unicode="P" horiz-adv-x="602" d="M63 700h245q127 0 198.5 -61.5t71.5 -172.5q0 -108 -72 -170.5t-198 -62.5h-106v-233h-139v700zM202 355h110q63 0 95 28.5t32 80.5q0 109 -127 109h-110v-218z" />
<glyph unicode="Q" horiz-adv-x="797" d="M765 350q0 -141 -82 -238.5t-215 -119.5v-131h-140v131q-132 22 -214.5 119.5t-82.5 238.5q0 161 104 262.5t263 101.5t263 -101.5t104 -262.5zM398 118q99 0 163 63.5t64 168.5q0 106 -64 169.5t-163 63.5t-163 -64t-64 -169t64 -168.5t163 -63.5z" />
<glyph unicode="R" horiz-adv-x="631" d="M443 0l-141 246h-45h-55v-246h-139v700h248q129 0 201.5 -61.5t72.5 -168.5q0 -75 -37 -125.5t-105 -71.5l165 -273h-165zM202 358h119q122 0 122 105q0 54 -32 82t-92 28h-117v-215z" />
<glyph unicode="S" horiz-adv-x="615" d="M30 178l133 36q8 -51 50 -78t108 -27q58 0 90.5 22t32.5 65q0 20 -8 35t-19 24t-31.5 16t-36.5 10.5t-43 8.5t-43 9q-43 10 -74.5 22t-66.5 35t-54 61.5t-19 90.5q0 100 69 153t187 53q221 0 275 -180l-133 -35q-28 92 -145 92q-111 0 -111 -79q0 -17 5 -30t19 -23.5 t24 -16.5t37 -13t39 -10t48 -10q46 -9 79.5 -21t69 -35t54.5 -62.5t19 -94.5q0 -103 -69 -156t-195 -53q-49 0 -92 8.5t-85 28.5t-72 59.5t-42 94.5z" />
<glyph unicode="T" horiz-adv-x="651" d="M618 571h-223v-571h-139v571h-223v129h585v-129z" />
<glyph unicode="U" horiz-adv-x="705" d="M649 700v-395q0 -153 -79 -235.5t-217 -82.5q-140 0 -218.5 82.5t-78.5 235.5v395h141v-391q0 -98 39 -144.5t118 -46.5t118 46.5t39 144.5v391h138z" />
<glyph unicode="V" horiz-adv-x="720" d="M447 0h-175l-259 700h157l120 -344q21 -58 39 -110t25.5 -73t7.5 -22h3q0 1 7 21.5t24.5 71.5t38.5 109l121 347h150z" />
<glyph unicode="W" horiz-adv-x="1035" d="M656 0l-91 298q-13 42 -24 83.5t-17 61.5l-5 20h-4l-5 -20q-5 -20 -16.5 -63.5t-24.5 -88.5l-84 -291h-157l-211 700h154l87 -310q13 -43 28 -96t22.5 -78.5t7.5 -26.5h3q0 1 7 25.5t19 68.5t22 78l74 264h168l73 -265l48 -171h3q0 1 7.5 26.5t21.5 75t27 93.5l91 316 h138l-211 -700h-151z" />
<glyph unicode="X" horiz-adv-x="731" d="M537 0l-99 140q-73 107 -74 107h-1l-78 -108l-97 -139h-168l264 362l-249 338h169l95 -134q18 -24 37 -51t28 -39l8 -11h1q2 0 69 102l90 133h167l-246 -339l258 -361h-174z" />
<glyph unicode="Y" horiz-adv-x="694" d="M417 285v-285h-140v285l-264 415l161 1l124 -204q12 -20 25.5 -42t20.5 -33l6 -11h3l7 11q6 11 18.5 32.5t25.5 41.5l128 204h149z" />
<glyph unicode="Z" horiz-adv-x="662" d="M623 566l-325 -353q-22 -23 -42.5 -43.5l-29.5 -29.5l-9 -8l2 -4h3h7h11t14.5 0.5t18 0.5h21h23.5h306v-129h-584v129l341 367q19 21 37 39t26 25l8 8l-2 4h-5h-15t-20 -0.5t-25.5 -0.5h-27.5h-307v129h574v-134z" />
<glyph unicode="[" horiz-adv-x="410" d="M372 -87v-124h-280v1011h280v-124h-146v-763h146z" />
<glyph unicode="\" horiz-adv-x="525" d="M508 0h-144l-348 700h142z" />
<glyph unicode="]" horiz-adv-x="410" d="M38 679v124h280v-1011h-280v124h147v763h-147z" />
<glyph unicode="^" d="M333 587l-168 -222l-101 67l210 271h118l212 -271l-102 -67z" />
<glyph unicode="_" horiz-adv-x="735" d="M672 -110h-609v110h609v-110z" />
<glyph unicode="`" horiz-adv-x="568" d="M284 929l109 -175h-124l-94 139z" />
<glyph unicode="a" horiz-adv-x="614" d="M421 115h-231l-39 -115h-135l209 560h163l209 -560h-136zM383 228l-31 89q-14 40 -25 74t-15 47l-5 14h-3l-48 -141l-28 -83h155z" />
<glyph unicode="b" horiz-adv-x="551" d="M413 300v-4q47 -13 78.5 -47.5t31.5 -86.5q0 -69 -53.5 -115.5t-154.5 -46.5h-252v560h251q77 0 127.5 -44t50.5 -103q0 -45 -24 -73.5t-55 -39.5zM195 338h94q32 0 51 15t19 42q0 24 -18 40t-52 16h-94v-113zM195 109h113q37 0 57.5 17t20.5 46q0 30 -21.5 47.5 t-57.5 17.5h-112v-128z" />
<glyph unicode="c" horiz-adv-x="633" d="M475 186l126 -34q-36 -75 -104.5 -119t-162.5 -44q-133 0 -218 82t-85 208q0 127 85 209.5t217 82.5q92 0 163 -43t104 -122l-125 -34q-54 78 -142 78q-76 0 -122 -47t-46 -123q0 -77 46.5 -124t121.5 -47q96 0 142 77z" />
<glyph unicode="d" horiz-adv-x="624" d="M63 560h217q137 0 225 -76t88 -206t-87 -204t-224 -74h-219v560zM195 123h85q179 0 179 155q0 80 -47 119.5t-133 39.5h-84v-314z" />
<glyph unicode="e" horiz-adv-x="537" d="M63 0v560h425v-123h-293v-93h215v-117h-215v-104h298v-123h-430z" />
<glyph unicode="f" horiz-adv-x="504" d="M467 437h-272v-126h199v-123h-199v-188h-132v560h404v-123z" />
<glyph unicode="g" horiz-adv-x="670" d="M620 0h-117q0 21 0.5 34t0.5 18v6h-3q-26 -27 -71.5 -48t-105.5 -21q-124 0 -208.5 82t-84.5 209q0 126 85 208.5t217 82.5q91 0 163 -42t106 -123l-121 -32q-19 34 -58 56t-89 22q-77 0 -123 -46t-46 -126q0 -78 49.5 -124.5t135.5 -46.5q45 0 89 16t62 35v44h-152v116 h271v-320z" />
<glyph unicode="h" horiz-adv-x="620" d="M557 0h-132v221h-230v-221h-132v560h132v-216h230v216h132v-560z" />
<glyph unicode="i" horiz-adv-x="257" d="M63 0v560h132v-560h-132z" />
<glyph unicode="j" horiz-adv-x="447" d="M389 560v-313q0 -126 -58.5 -192t-172.5 -66q-102 0 -158 57l72 95q32 -32 85 -32q59 0 80 34t21 112v305h131z" />
<glyph unicode="k" horiz-adv-x="611" d="M447 0l-163 250l-89 -96v-154h-132v560h132v-132l-1 -119h3q3 3 59 65l166 186h164l-206 -221l218 -339h-151z" />
<glyph unicode="l" horiz-adv-x="489" d="M63 0v560h132v-437h261v-123h-393z" />
<glyph unicode="m" horiz-adv-x="717" d="M522 0v251v115h-3l-119 -231h-85l-122 238h-3v-115v-258h-127v560h160l89 -164q13 -24 26.5 -49.5t19.5 -37.5l6 -12h3q1 0 7 11.5t20 38.5t26 50l87 163h147v-560h-132z" />
<glyph unicode="n" horiz-adv-x="648" d="M585 0h-137l-252 357h-3v-4q0 -4 0.5 -10.5t0.5 -15v-20t0.5 -23t0.5 -25.5v-27v-232h-132v560h136l252 -347h3v3v9.5v13t-0.5 17.5t-0.5 20.5v22.5v24v237h132v-560z" />
<glyph unicode="o" horiz-adv-x="662" d="M31 280q0 127 85 209t215 82t215 -82t85 -209t-85 -209t-215 -82t-215 82t-85 209zM165 280q0 -76 46 -123.5t120 -47.5q73 0 119.5 47.5t46.5 123.5q0 75 -46.5 122.5t-119.5 47.5q-74 0 -120 -47t-46 -123z" />
<glyph unicode="p" horiz-adv-x="531" d="M63 560h214q108 0 169.5 -52.5t61.5 -139.5q0 -88 -61 -139t-170 -51h-82v-178h-132v560zM195 285h87q45 0 68.5 21.5t23.5 58.5q0 35 -23 57t-69 22h-87v-159z" />
<glyph unicode="q" horiz-adv-x="660" d="M631 280q0 -110 -65 -187.5t-170 -97.5v-111h-132v111q-104 20 -168.5 98t-64.5 187q0 127 85 209t215 82t215 -82t85 -209zM331 109q73 0 119.5 47.5t46.5 123.5q0 75 -46.5 122.5t-119.5 47.5q-74 0 -120 -47t-46 -123t46 -123.5t120 -47.5z" />
<glyph unicode="r" horiz-adv-x="565" d="M400 0l-115 192q-13 -1 -54 -1h-36v-191h-132v560h218q110 0 171.5 -49.5t61.5 -135.5q0 -61 -29 -100.5t-76 -56.5l133 -218h-142zM195 293h94q91 0 91 74t-91 74h-94v-148z" />
<glyph unicode="s" horiz-adv-x="527" d="M30 140l119 32q6 -34 36.5 -57.5t85.5 -23.5q91 0 91 66q0 13 -3.5 23.5t-12.5 18t-17.5 12.5t-26.5 10t-30 7.5t-37 7.5t-41 9q-70 16 -112 49.5t-42 107.5q0 83 57.5 126t160.5 43q193 0 233 -139l-115 -31q-20 68 -110 68q-43 0 -66.5 -16t-23.5 -45q0 -36 45 -52 q22 -8 93 -22q35 -7 61 -16t57 -27.5t48 -51.5t17 -79q0 -87 -61.5 -129t-164.5 -42q-210 0 -241 151z" />
<glyph unicode="t" horiz-adv-x="566" d="M533 437h-184v-437h-132v437h-184v123h500v-123z" />
<glyph unicode="u" horiz-adv-x="627" d="M571 560v-299q0 -137 -68.5 -204.5t-189.5 -67.5t-189 67.5t-68 204.5v299h134v-311q0 -140 125 -140t125 140v311h131z" />
<glyph unicode="v" horiz-adv-x="630" d="M395 0h-160l-222 560h147l91 -238q50 -130 67 -181h3l66 180l90 239h140z" />
<glyph unicode="w" horiz-adv-x="866" d="M542 0l-62 200q-45 149 -46 150h-2l-4 -15q-5 -15 -17 -54.5t-25 -81.5l-62 -199h-137l-170 560h140l65 -224q14 -48 26 -89.5t16 -58.5l5 -17h3l4 15q5 16 16 54.5t22 77.5l56 188h141l54 -188q11 -40 21 -77.5t14 -53.5l4 -16h3l5 17q4 16 16 58t26 90l67 224h128 l-170 -560h-137z" />
<glyph unicode="x" horiz-adv-x="615" d="M436 0l-74 103q-17 23 -32.5 45t-21.5 32l-7 9h-1q-1 0 -61 -87l-70 -102h-149l203 286l-188 274h157l61 -91q61 -90 62 -90h1q1 0 64 94l56 87h143l-190 -274l206 -286h-159z" />
<glyph unicode="y" horiz-adv-x="574" d="M352 0h-131v204l-208 356h151l69 -121q14 -25 29 -53t23 -42l8 -14h3l8 14q7 14 22.5 42.5t29.5 53.5l69 120h136l-209 -356v-204z" />
<glyph unicode="z" horiz-adv-x="568" d="M529 433l-220 -217q-30 -29 -55 -52t-34 -31l-10 -8l2 -3q38 1 89 1h228v-123h-490v127l236 228q26 25 47 45.5t28 27.5l7 6l-1 3h-79h-229v123h481v-127z" />
<glyph unicode="{" horiz-adv-x="449" d="M266 525v-73q0 -36 -8.5 -65t-20 -45.5t-25.5 -28.5t-23 -16t-14 -5q5 -1 14 -6t23 -17.5t25.5 -29.5t20 -45t8.5 -62v-74q0 -90 38.5 -122.5t105.5 -32.5v-118q-128 0 -199 67.5t-71 187.5v85q0 102 -75 108h-2v118q35 5 52 24q25 29 25 84v85q0 119 71 186t199 67v-118 q-67 0 -105.5 -32t-38.5 -122z" />
<glyph unicode="|" horiz-adv-x="230" d="M60 775h110v-849h-110v849z" />
<glyph unicode="}" horiz-adv-x="449" d="M183 58v73q0 36 8.5 65t20 45.5t25.5 28.5t23 16t14 5q-5 1 -14 6t-23 17.5t-25.5 29.5t-20 45.5t-8.5 62.5v73q0 90 -38.5 122.5t-104.5 32.5v118q128 0 198.5 -67.5t70.5 -186.5v-86q0 -16 2 -29.5t5.5 -23t8 -18t9.5 -13.5t11 -9.5t11 -6.5t10.5 -3.5t8.5 -2t7 -0.5 l4 -1v-119q-32 -5 -47 -18q-30 -28 -30 -90v-85q0 -119 -70.5 -186t-198.5 -67v118q67 0 105 32t38 122z" />
<glyph unicode="~" d="M538 358l21 -110q-11 -15 -43 -31t-71 -16t-104.5 20.5t-105.5 20.5q-62 0 -104 -44l-23 110q13 16 45 32t71 16q38 0 103.5 -20.5t105.5 -20.5q57 0 105 43z" />
<glyph unicode="&#xa1;" horiz-adv-x="319" d="M160 709q36 0 55.5 -19.5t19.5 -49.5t-19.5 -49.5t-55.5 -19.5t-55.5 19.5t-19.5 49.5t19.5 49.5t55.5 19.5zM90 0v513h140v-513h-140z" />
<glyph unicode="&#xa2;" horiz-adv-x="578" d="M298 133q87 0 125 76l122 -33q-25 -62 -76 -103.5t-117 -54.5v-99h-112v99q-92 18 -150.5 90.5t-58.5 177.5q0 102 57 171t152 86v104h112v-104q67 -11 119 -50t76 -107l-122 -34q-37 82 -125 82q-67 0 -103.5 -40t-36.5 -109q0 -70 37.5 -111t100.5 -41z" />
<glyph unicode="&#xa3;" horiz-adv-x="524" d="M36 0v123q31 5 41.5 19.5t10.5 46.5l-1 26h-52v97h42q-8 68 -8 92q0 79 50 123t145 44q191 0 217 -166l-122 -33q-11 48 -32 68t-56 20q-37 0 -55.5 -18t-18.5 -61q0 -30 6 -69h173v-97h-161q2 -22 2 -30q0 -45 -24 -61l2 -3q55 2 136 2h155v-123h-450z" />
<glyph unicode="&#xa4;" horiz-adv-x="655" d="M618 501l-69 -69q48 -67 48 -152q0 -83 -48 -153l68 -69l-68 -69l-70 69q-70 -49 -153 -49t-151 49l-69 -69l-68 69l67 69q-48 70 -48 153q0 84 48 153l-68 68l68 69l69 -68q69 48 152 48q85 0 154 -48l70 68zM327 426q-61 0 -103.5 -41.5t-42.5 -104.5q0 -65 42 -106 t104 -41t104 41t42 106q0 63 -42 104.5t-104 41.5z" />
<glyph unicode="&#xa5;" horiz-adv-x="528" d="M419 384h58v-83h-100l-21 -42h121v-84h-148v-175h-132v175h-144v84h117l-21 42h-96v83h55l-88 176h145l67 -156q6 -14 14 -32.5t13 -29.5l5 -12h3q5 5 32 74l67 156h142z" />
<glyph unicode="&#xa6;" horiz-adv-x="230" d="M170 490h-110v285h110v-285zM170 -74h-110v285h110v-285z" />
<glyph unicode="&#xa7;" d="M512 256q76 -40 76 -118q0 -151 -239 -151q-69 0 -123 12t-96.5 44.5t-52.5 83.5l130 34q4 -37 38.5 -57t92.5 -20q107 0 107 60q0 29 -26.5 39.5t-111.5 25.5q-37 7 -59 11q-33 6 -59 15t-51.5 23.5t-39.5 38.5t-14 55q0 76 79 112q-69 33 -69 108q0 73 59.5 107.5 t163.5 34.5q217 0 260 -137l-114 -31q-29 77 -142 77q-88 0 -88 -48q0 -8 2 -14.5t7 -11.5t10 -9t15 -7.5t17.5 -5.5t22.5 -5t25.5 -4.5t30 -5t32.5 -5.5q99 -17 147.5 -47t48.5 -94q0 -79 -79 -110zM210 372q0 -9 3 -17t10 -14t14 -11t19.5 -9.5t22.5 -7.5t26.5 -6t28 -5 t30.5 -5.5t30 -5.5l17 -3q53 16 53 58q0 20 -10 33.5t-32 21.5t-42.5 12.5t-55.5 10.5q-17 3 -25 4l-22 4q-67 -15 -67 -60z" />
<glyph unicode="&#xa8;" horiz-adv-x="568" d="M181 767q-27 0 -45.5 18.5t-18.5 45.5q0 26 19 45t46 19q26 0 44.5 -19t18.5 -45q0 -27 -18.5 -45.5t-45.5 -18.5zM386 767q-27 0 -45.5 18.5t-18.5 45.5q0 26 18.5 45t45.5 19t46 -19t19 -45q0 -27 -19 -45.5t-46 -18.5z" />
<glyph unicode="&#xa9;" horiz-adv-x="790" d="M394 629q154 0 259 -102t105 -262q0 -159 -105.5 -261.5t-258.5 -102.5t-258 102.5t-105 261.5q0 160 105 262t258 102zM394 560q-127 0 -209 -82t-82 -212q0 -131 82 -213.5t209 -82.5q128 0 210.5 82.5t82.5 213.5q0 130 -82.5 212t-210.5 82zM482 204l84 -28 q-22 -46 -68 -74t-107 -28q-86 0 -139.5 53t-53.5 137t54.5 138t139.5 54q62 0 107 -29.5t64 -81.5l-83 -22q-25 47 -85 47q-48 0 -77 -28.5t-29 -76.5t29 -76.5t77 -28.5q59 0 87 44z" />
<glyph unicode="&#xaa;" horiz-adv-x="417" d="M118 235h-82l119 325h108l118 -325h-86l-21 61h-134zM208 488h-3l-3 -9q-3 -9 -9.5 -29t-12.5 -38l-19 -53h91l-18 53q-6 17 -13 37.5t-10 29.5zM382 171v-85h-347v85h347z" />
<glyph unicode="&#xab;" horiz-adv-x="707" d="M296 514l75 -75l-163 -157v-3l164 -157l-77 -76l-235 234zM571 514l75 -75l-163 -157v-3l164 -157l-77 -76l-235 234z" />
<glyph unicode="&#xad;" horiz-adv-x="574" d="M486 226h-398v114h398v-114z" />
<glyph unicode="&#xae;" horiz-adv-x="790" d="M394 629q154 0 259 -102t105 -262q0 -159 -105.5 -261.5t-258.5 -102.5t-258 102.5t-105 261.5q0 160 105 262t258 102zM394 560q-127 0 -209 -82t-82 -212q0 -131 82 -213.5t209 -82.5q128 0 210.5 82.5t82.5 213.5q0 130 -82.5 212t-210.5 82zM462 82l-71 132 q-8 -1 -29 -1h-21v-131h-93v369h149q74 0 115 -33t41 -90q0 -74 -70 -97l82 -149h-103zM341 282h61q56 0 56 44t-56 44h-61v-88z" />
<glyph unicode="&#xaf;" horiz-adv-x="568" d="M444 763h-320v115h320v-115z" />
<glyph unicode="&#xb0;" horiz-adv-x="288" d="M144 574q-58 0 -94.5 35t-36.5 92t36.5 91.5t94.5 34.5q59 0 95 -34.5t36 -91.5q0 -58 -36 -92.5t-95 -34.5zM144 651q22 0 35.5 14t13.5 36t-13.5 35.5t-35.5 13.5t-35.5 -13.5t-13.5 -35.5t13.5 -36t35.5 -14z" />
<glyph unicode="&#xb1;" d="M533 436v-114h-138l1 -138h-123v138h-138v114h138v144h122v-144h138zM135 115h398v-114h-398v114z" />
<glyph unicode="&#xb2;" horiz-adv-x="340" d="M30 474v104l142 94q50 31 50 67q0 49 -57 49q-51 0 -63 -49l-74 21q26 110 147 110q64 0 99.5 -31.5t35.5 -89.5q0 -66 -62 -113q-18 -14 -46 -34t-48 -33l-19 -13l1 -5q33 3 59 3h120v-80h-285z" />
<glyph unicode="&#xb3;" horiz-adv-x="340" d="M242 675v-4q31 -4 53 -28.5t22 -63.5q0 -48 -39 -80.5t-98 -32.5q-69 0 -108 32t-49 83l79 23q6 -60 69 -60q29 0 45 14.5t16 36.5t-16.5 35.5t-44.5 13.5h-29v58h25q27 0 43.5 13.5t16.5 35.5q0 19 -15 32t-43 13q-54 0 -64 -57l-74 20q17 111 144 111q66 0 100.5 -29 t34.5 -76q0 -37 -19.5 -62t-48.5 -28z" />
<glyph unicode="&#xb4;" horiz-adv-x="568" d="M299 754h-124l109 175l109 -36z" />
<glyph unicode="&#xb6;" horiz-adv-x="655" d="M453 -140v571h-74v-571h-139v332q-102 0 -155.5 48.5t-53.5 138.5q0 87 53.5 134t155.5 47h352v-700h-139z" />
<glyph unicode="&#xb7;" horiz-adv-x="264" d="M132 212q-36 0 -56 20t-20 50t20 49.5t56 19.5t55.5 -19.5t19.5 -49.5t-19.5 -50t-55.5 -20z" />
<glyph unicode="&#xb8;" horiz-adv-x="568" d="M405 -78q0 -98 -143 -98q-57 0 -89 13v87q24 -11 68 -11q68 0 68 28q0 35 -121 34v73h94v-29q123 -7 123 -97z" />
<glyph unicode="&#xb9;" horiz-adv-x="340" d="M311 474h-248v79h79v125q0 46 6 79h-4l-4 -5q-3 -4 -9 -11t-11 -12l-30 -30l-57 55l114 108h85v-308h79v-80z" />
<glyph unicode="&#xba;" horiz-adv-x="414" d="M35 399q0 74 50 123t122 49t122 -49t50 -123t-50 -123t-122 -49t-122 49t-50 123zM118 399q0 -41 24 -67t65 -26t65 26t24 67t-24 67t-65 26t-65 -26t-24 -67zM370 84h-325v85h325v-85z" />
<glyph unicode="&#xbb;" horiz-adv-x="707" d="M137 46l-77 76l164 157v3l-163 157l75 75l236 -234zM412 46l-77 76l164 157v3l-163 157l75 75l236 -234z" />
<glyph unicode="&#xbc;" horiz-adv-x="839" d="M311 312h-248v79h79v125q0 46 6 79h-4l-4 -5q-3 -4 -9 -11t-11 -12l-30 -30l-57 55l114 108h85v-308h79v-80zM573 700l-209 -700h-98l209 700h98zM772 1h-86v86h-174v75l131 226h129v-222h55v-79h-55v-86zM686 166v80q0 53 3 71h-5l-21 -36q-21 -36 -42.5 -73t-22.5 -39 l4 -4l42 1h42z" />
<glyph unicode="&#xbd;" horiz-adv-x="839" d="M311 312h-248v79h79v125q0 46 6 79h-4l-4 -5q-3 -4 -9 -11t-11 -12l-30 -30l-57 55l114 108h85v-308h79v-80zM573 700l-209 -700h-98l209 700h98zM530 1v103l141 94q50 30 50 68q0 48 -56 48q-52 0 -63 -49l-74 21q26 110 146 110q64 0 100 -31.5t36 -89.5 q0 -64 -62 -113q-17 -13 -46 -33t-48.5 -33t-19.5 -14l2 -5q33 3 58 3h120v-79h-284z" />
<glyph unicode="&#xbe;" horiz-adv-x="839" d="M242 513v-4q31 -4 53 -28.5t22 -63.5q0 -48 -39 -80.5t-98 -32.5q-69 0 -108 32t-49 83l79 23q6 -60 69 -60q29 0 45 14.5t16 36.5t-16.5 35.5t-44.5 13.5h-29v58h25q27 0 43.5 13.5t16.5 35.5q0 19 -15 32t-43 13q-54 0 -64 -57l-74 20q17 111 144 111q66 0 100.5 -29 t34.5 -76q0 -37 -19.5 -62t-48.5 -28zM573 700l-209 -700h-98l209 700h98zM772 1h-86v86h-174v75l131 226h129v-222h55v-79h-55v-86zM686 166v80q0 53 3 71h-5l-21 -36q-21 -36 -42.5 -73t-22.5 -39l4 -4l42 1h42z" />
<glyph unicode="&#xbf;" horiz-adv-x="572" d="M293 709q36 0 56 -19.5t20 -49.5t-20 -49.5t-56 -19.5q-35 0 -54.5 19.5t-19.5 49.5t19.5 49.5t54.5 19.5zM363 513v-173q-109 -35 -150 -65t-41 -68q0 -37 25.5 -63t83.5 -26q54 0 83.5 22.5t44.5 66.5l132 -36q-23 -86 -92.5 -135.5t-172.5 -49.5q-115 0 -180 58 t-65 144q0 146 192 216v109h140z" />
<glyph unicode="&#xc0;" horiz-adv-x="749" d="M318 754l-94 139l109 36l109 -175h-124zM531 140h-315l-53 -140h-147l280 700h157l280 -700h-149zM482 266l-58 154q-9 24 -22 56.5t-20 49.5l-7 17h-3q-1 -1 -49 -123l-59 -154h218z" />
<glyph unicode="&#xc1;" horiz-adv-x="749" d="M429 754h-125l110 175l109 -36zM531 140h-315l-53 -140h-147l280 700h157l280 -700h-149zM482 266l-58 154q-9 24 -22 56.5t-20 49.5l-7 17h-3q-1 -1 -49 -123l-59 -154h218z" />
<glyph unicode="&#xc2;" horiz-adv-x="749" d="M265 745l-61 73l167 127l166 -127l-61 -74l-105 80zM531 140h-315l-53 -140h-147l280 700h157l280 -700h-149zM482 266l-58 154q-9 24 -22 56.5t-20 49.5l-7 17h-3q-1 -1 -49 -123l-59 -154h218z" />
<glyph unicode="&#xc3;" horiz-adv-x="749" d="M296 800q-53 0 -83 -28l-22 100q30 33 92 33q31 0 81 -15.5t83 -15.5q48 0 81 27l22 -100q-9 -11 -33.5 -21.5t-57.5 -10.5q-31 0 -81.5 15.5t-81.5 15.5zM531 140h-315l-53 -140h-147l280 700h157l280 -700h-149zM482 266l-58 154q-9 24 -22 56.5t-20 49.5l-7 17h-3 q-1 -1 -49 -123l-59 -154h218z" />
<glyph unicode="&#xc4;" horiz-adv-x="749" d="M271 767q-27 0 -45.5 18.5t-18.5 45.5q0 26 19 45t47 19q26 0 44.5 -19t18.5 -45q0 -27 -19 -45.5t-46 -18.5zM477 767q-28 0 -46.5 18.5t-18.5 45.5t19 45.5t46 18.5q26 0 45 -19t19 -45q0 -27 -19 -45.5t-45 -18.5zM531 140h-315l-53 -140h-147l280 700h157l280 -700 h-149zM482 266l-58 154q-9 24 -22 56.5t-20 49.5l-7 17h-3q-1 -1 -49 -123l-59 -154h218z" />
<glyph unicode="&#xc5;" horiz-adv-x="749" d="M374 733q-57 0 -92 30t-35 83t35 83t92 30t92 -30t35 -83t-35 -83t-92 -30zM374 884q-19 0 -30.5 -10.5t-11.5 -27.5q0 -18 11.5 -28t30.5 -10t30.5 10t11.5 28q0 17 -11.5 27.5t-30.5 10.5zM531 140h-315l-53 -140h-147l280 700h157l280 -700h-149zM482 266l-58 154 q-9 24 -22 56.5t-20 49.5l-7 17h-3q-1 -1 -49 -123l-59 -154h218z" />
<glyph unicode="&#xc6;" horiz-adv-x="1000" d="M955 123v-123h-497v146h-238l-56 -146h-148l280 700h162h493v-123h-357v-159h276v-117h-276v-178h361zM458 262v315h-72l-121 -315h193z" />
<glyph unicode="&#xc7;" horiz-adv-x="756" d="M588 240l137 -36q-31 -79 -93 -132.5t-144 -73.5q42 -24 42 -76q0 -98 -143 -98q-57 0 -89 13v87q24 -11 68 -11q68 0 68 28q0 35 -121 34v19q-126 25 -204 121.5t-78 236.5q0 160 102.5 261t259.5 101q117 0 202.5 -55.5t121.5 -142.5l-138 -38q-62 105 -192 105 q-97 0 -156.5 -63.5t-59.5 -168.5q0 -106 60.5 -169.5t154.5 -63.5q71 0 123.5 33.5t78.5 88.5z" />
<glyph unicode="&#xc8;" horiz-adv-x="609" d="M272 929l109 -175h-124l-94 139zM63 0v700h497v-129h-358v-147h269v-130h-269v-165h362v-129h-501z" />
<glyph unicode="&#xc9;" horiz-adv-x="609" d="M368 754h-124l109 175l109 -36zM63 0v700h497v-129h-358v-147h269v-130h-269v-165h362v-129h-501z" />
<glyph unicode="&#xca;" horiz-adv-x="609" d="M476 818l-60 -74l-106 80l-106 -79l-61 73l167 127zM63 0v700h497v-129h-358v-147h269v-130h-269v-165h362v-129h-501z" />
<glyph unicode="&#xcb;" horiz-adv-x="609" d="M211 767q-27 0 -45.5 18.5t-18.5 45.5t18.5 45.5t46.5 18.5q26 0 44.5 -19t18.5 -45q0 -27 -19 -45.5t-45 -18.5zM416 767q-28 0 -46 18.5t-18 45.5t18.5 45.5t45.5 18.5t45.5 -19t18.5 -45q0 -27 -18.5 -45.5t-45.5 -18.5zM63 0v700h497v-129h-358v-147h269v-130h-269 v-165h362v-129h-501z" />
<glyph unicode="&#xcc;" horiz-adv-x="265" d="M92 929l109 -175h-125l-94 139zM63 0v700h139v-700h-139z" />
<glyph unicode="&#xcd;" horiz-adv-x="265" d="M187 754h-124l109 175l109 -36zM63 0v700h139v-700h-139z" />
<glyph unicode="&#xce;" horiz-adv-x="265" d="M264 823l-65 -71l-66 63l-67 -62l-64 70l131 122zM63 0v700h139v-700h-139z" />
<glyph unicode="&#xcf;" horiz-adv-x="265" d="M56 767q-27 0 -45.5 18.5t-18.5 45.5q0 26 19 45t47 19q26 0 44.5 -19t18.5 -45q0 -27 -19 -45.5t-46 -18.5zM209 767q-28 0 -46.5 18.5t-18.5 45.5t19 45.5t46 18.5t45.5 -19t18.5 -45q0 -27 -18.5 -45.5t-45.5 -18.5zM63 0v700h139v-700h-139z" />
<glyph unicode="&#xd0;" horiz-adv-x="744" d="M63 700h280q160 0 264.5 -97.5t104.5 -255.5q0 -157 -104 -252t-263 -95h-282v297h-52v123h52v280zM202 129h135q100 0 167.5 55t67.5 163t-68.5 166t-168.5 58h-133v-151h154v-123h-154v-168z" />
<glyph unicode="&#xd1;" horiz-adv-x="742" d="M525 901l22 -100q-8 -11 -33 -21.5t-58 -10.5q-31 0 -81.5 15.5t-81.5 15.5q-52 0 -82 -28l-22 100q9 12 33.5 22.5t58.5 10.5q31 0 81 -15.5t82 -15.5q50 0 81 27zM538 0l-335 468h-3v-5q0 -5 0.5 -14.5t0.5 -21.5v-27.5t0.5 -32t0.5 -36v-37.5v-294h-139v700h141 l335 -461h3v5q0 6 -0.5 15t-0.5 21v27t-0.5 30.5t-0.5 33v33.5v296h139v-700h-141z" />
<glyph unicode="&#xd2;" horiz-adv-x="797" d="M358 929l109 -175h-124l-94 139zM31 350q0 161 104 262.5t263 101.5t263 -101.5t104 -262.5q0 -160 -104 -261.5t-263 -101.5t-263 101.5t-104 261.5zM171 350q0 -105 64 -168.5t163 -63.5t163 63.5t64 168.5t-64 169t-163 64t-163 -64t-64 -169z" />
<glyph unicode="&#xd3;" horiz-adv-x="797" d="M454 754h-124l109 175l109 -36zM31 350q0 161 104 262.5t263 101.5t263 -101.5t104 -262.5q0 -160 -104 -261.5t-263 -101.5t-263 101.5t-104 261.5zM171 350q0 -105 64 -168.5t163 -63.5t163 63.5t64 168.5t-64 169t-163 64t-163 -64t-64 -169z" />
<glyph unicode="&#xd4;" horiz-adv-x="797" d="M562 818l-60 -74l-106 80l-106 -79l-61 73l167 127zM31 350q0 161 104 262.5t263 101.5t263 -101.5t104 -262.5q0 -160 -104 -261.5t-263 -101.5t-263 101.5t-104 261.5zM171 350q0 -105 64 -168.5t163 -63.5t163 63.5t64 168.5t-64 169t-163 64t-163 -64t-64 -169z" />
<glyph unicode="&#xd5;" horiz-adv-x="797" d="M553 901l22 -100q-9 -11 -33.5 -21.5t-57.5 -10.5q-31 0 -81.5 15.5t-81.5 15.5q-54 0 -82 -28l-23 100q30 33 92 33q31 0 81.5 -15.5t82.5 -15.5q48 0 81 27zM31 350q0 161 104 262.5t263 101.5t263 -101.5t104 -262.5q0 -160 -104 -261.5t-263 -101.5t-263 101.5 t-104 261.5zM171 350q0 -105 64 -168.5t163 -63.5t163 63.5t64 168.5t-64 169t-163 64t-163 -64t-64 -169z" />
<glyph unicode="&#xd6;" horiz-adv-x="797" d="M297 767q-27 0 -45.5 18.5t-18.5 45.5t18.5 45.5t46.5 18.5q26 0 44.5 -19t18.5 -45q0 -27 -19 -45.5t-45 -18.5zM502 767q-28 0 -46 18.5t-18 45.5t18.5 45.5t45.5 18.5t45.5 -19t18.5 -45q0 -27 -18.5 -45.5t-45.5 -18.5zM31 350q0 161 104 262.5t263 101.5t263 -101.5 t104 -262.5q0 -160 -104 -261.5t-263 -101.5t-263 101.5t-104 261.5zM171 350q0 -105 64 -168.5t163 -63.5t163 63.5t64 168.5t-64 169t-163 64t-163 -64t-64 -169z" />
<glyph unicode="&#xd7;" d="M417 284l116 -116l-83 -83l-116 115l-116 -115l-83 83l116 116l-117 115l84 83l116 -114l116 114l84 -83z" />
<glyph unicode="&#xd8;" horiz-adv-x="797" d="M749 704l-78 -101q94 -102 94 -253q0 -160 -104 -261.5t-263 -101.5q-94 0 -171 37l-80 -104l-100 77l78 102q-94 100 -94 251q0 161 104 262.5t263 101.5q93 0 172 -37l79 102zM171 350q0 -80 40 -139l275 356q-43 16 -88 16q-99 0 -163 -64t-64 -169zM398 118 q99 0 163 63.5t64 168.5q0 83 -40 141l-274 -358q39 -15 87 -15z" />
<glyph unicode="&#xd9;" horiz-adv-x="705" d="M316 929l109 -175h-124l-94 139zM649 700v-395q0 -153 -79 -235.5t-217 -82.5q-140 0 -218.5 82.5t-78.5 235.5v395h141v-391q0 -98 39 -144.5t118 -46.5t118 46.5t39 144.5v391h138z" />
<glyph unicode="&#xda;" horiz-adv-x="705" d="M412 754h-125l110 175l109 -36zM649 700v-395q0 -153 -79 -235.5t-217 -82.5q-140 0 -218.5 82.5t-78.5 235.5v395h141v-391q0 -98 39 -144.5t118 -46.5t118 46.5t39 144.5v391h138z" />
<glyph unicode="&#xdb;" horiz-adv-x="705" d="M520 818l-61 -74l-105 80l-106 -79l-61 73l167 127zM649 700v-395q0 -153 -79 -235.5t-217 -82.5q-140 0 -218.5 82.5t-78.5 235.5v395h141v-391q0 -98 39 -144.5t118 -46.5t118 46.5t39 144.5v391h138z" />
<glyph unicode="&#xdc;" horiz-adv-x="705" d="M254 767q-27 0 -45.5 18.5t-18.5 45.5q0 26 19 45t47 19q26 0 44.5 -19t18.5 -45q0 -27 -19 -45.5t-46 -18.5zM460 767q-28 0 -46.5 18.5t-18.5 45.5t18.5 45.5t46.5 18.5q26 0 45 -19t19 -45q0 -27 -19 -45.5t-45 -18.5zM649 700v-395q0 -153 -79 -235.5t-217 -82.5 q-140 0 -218.5 82.5t-78.5 235.5v395h141v-391q0 -98 39 -144.5t118 -46.5t118 46.5t39 144.5v391h138z" />
<glyph unicode="&#xdd;" horiz-adv-x="694" d="M416 754h-125l109 175l109 -36zM417 285v-285h-140v285l-264 415l161 1l124 -204q12 -20 25.5 -42t20.5 -33l6 -11h3l7 11q6 11 18.5 32.5t25.5 41.5l128 204h149z" />
<glyph unicode="&#xde;" horiz-adv-x="592" d="M202 573h98q126 0 197.5 -60.5t71.5 -166.5q0 -104 -71.5 -162t-197.5 -58h-98v-126h-139v700h139v-127zM202 249h106q59 0 90 25.5t31 72.5q0 46 -30.5 71.5t-90.5 25.5h-106v-195z" />
<glyph unicode="&#xdf;" horiz-adv-x="600" d="M405 337h3q72 0 120 -47.5t48 -122.5q0 -77 -49.5 -128.5t-133.5 -51.5q-98 0 -143 47l54 92q33 -31 71 -31q35 0 55.5 21t20.5 50q0 33 -22.5 53t-63.5 20h-77v89l60 107l-2 2h-61h-90v-437h-132v560h463l-123 -220z" />
<glyph unicode="&#xe0;" horiz-adv-x="614" d="M252 614l-94 139l109 36l109 -175h-124zM421 115h-231l-39 -115h-135l209 560h163l209 -560h-136zM383 228l-31 89q-14 40 -25 74t-15 47l-5 14h-3l-48 -141l-28 -83h155z" />
<glyph unicode="&#xe1;" horiz-adv-x="614" d="M363 614h-124l109 175l109 -36zM421 115h-231l-39 -115h-135l209 560h163l209 -560h-136zM383 228l-31 89q-14 40 -25 74t-15 47l-5 14h-3l-48 -141l-28 -83h155z" />
<glyph unicode="&#xe2;" horiz-adv-x="614" d="M242 613l-65 70l131 122l131 -122l-64 -71l-67 63zM421 115h-231l-39 -115h-135l209 560h163l209 -560h-136zM383 228l-31 89q-14 40 -25 74t-15 47l-5 14h-3l-48 -141l-28 -83h155z" />
<glyph unicode="&#xe3;" horiz-adv-x="614" d="M238 660q-45 0 -73 -28l-22 101q8 10 31 21t51 11t73 -15.5t74 -15.5q45 0 72 27l22 -101q-8 -10 -30.5 -20.5t-50.5 -10.5t-74 15.5t-73 15.5zM421 115h-231l-39 -115h-135l209 560h163l209 -560h-136zM383 228l-31 89q-14 40 -25 74t-15 47l-5 14h-3l-48 -141l-28 -83 h155z" />
<glyph unicode="&#xe4;" horiz-adv-x="614" d="M206 627q-27 0 -45.5 18.5t-18.5 45.5t19 45.5t46 18.5q26 0 44.5 -19t18.5 -45q0 -27 -19 -45.5t-45 -18.5zM411 627q-27 0 -45.5 18.5t-18.5 45.5q0 26 18.5 45t45.5 19t45.5 -19t18.5 -45q0 -27 -18.5 -45.5t-45.5 -18.5zM421 115h-231l-39 -115h-135l209 560h163 l209 -560h-136zM383 228l-31 89q-14 40 -25 74t-15 47l-5 14h-3l-48 -141l-28 -83h155z" />
<glyph unicode="&#xe5;" horiz-adv-x="614" d="M308 593q-57 0 -92 30t-35 83t35 83t92 30t92 -30t35 -83t-35 -83t-92 -30zM308 744q-19 0 -30 -10.5t-11 -27.5q0 -18 11 -28t30 -10q42 0 42 38q0 17 -11.5 27.5t-30.5 10.5zM421 115h-231l-39 -115h-135l209 560h163l209 -560h-136zM383 228l-31 89q-14 40 -25 74 t-15 47l-5 14h-3l-48 -141l-28 -83h155z" />
<glyph unicode="&#xe6;" horiz-adv-x="831" d="M786 123v-123h-423v109h-176l-37 -109h-134l212 560h553v-123h-293v-93h216v-117h-216v-104h298zM363 220v222h-62l-76 -222h138z" />
<glyph unicode="&#xe7;" horiz-adv-x="633" d="M475 186l126 -34q-56 -119 -181 -152q44 -26 44 -78q0 -98 -143 -98q-57 0 -89 13v86q22 -10 69 -10q67 0 67 28q0 34 -121 34v24q-98 25 -157 100.5t-59 179.5q0 127 85 209.5t217 82.5q92 0 163 -43t104 -122l-125 -34q-54 78 -142 78q-76 0 -122 -47t-46 -123 q0 -77 46.5 -124t121.5 -47q96 0 142 77z" />
<glyph unicode="&#xe8;" horiz-adv-x="537" d="M236 789l109 -175h-124l-94 139zM63 0v560h425v-123h-293v-93h215v-117h-215v-104h298v-123h-430z" />
<glyph unicode="&#xe9;" horiz-adv-x="537" d="M332 614h-125l110 175l109 -36zM63 0v560h425v-123h-293v-93h215v-117h-215v-104h298v-123h-430z" />
<glyph unicode="&#xea;" horiz-adv-x="537" d="M440 678l-61 -74l-105 80l-106 -79l-61 73l167 127zM63 0v560h425v-123h-293v-93h215v-117h-215v-104h298v-123h-430z" />
<glyph unicode="&#xeb;" horiz-adv-x="537" d="M174 627q-27 0 -45.5 18.5t-18.5 45.5q0 26 19 45t47 19q26 0 44.5 -19t18.5 -45q0 -27 -19 -45.5t-46 -18.5zM380 627q-28 0 -46.5 18.5t-18.5 45.5t18.5 45.5t46.5 18.5q26 0 45 -19t19 -45q0 -27 -19 -45.5t-45 -18.5zM63 0v560h425v-123h-293v-93h215v-117h-215v-104 h298v-123h-430z" />
<glyph unicode="&#xec;" horiz-adv-x="257" d="M89 789l109 -175h-125l-94 139zM63 0v560h132v-560h-132z" />
<glyph unicode="&#xed;" horiz-adv-x="257" d="M185 614h-125l109 175l110 -36zM63 0v560h132v-560h-132z" />
<glyph unicode="&#xee;" horiz-adv-x="257" d="M261 683l-65 -71l-66 63l-66 -62l-65 70l131 122zM63 0v560h132v-560h-132z" />
<glyph unicode="&#xef;" horiz-adv-x="257" d="M54 627q-27 0 -45.5 18.5t-18.5 45.5t19 45.5t46 18.5q26 0 44.5 -19t18.5 -45q0 -27 -19 -45.5t-45 -18.5zM206 627q-27 0 -45.5 18.5t-18.5 45.5q0 26 18.5 45t45.5 19t45.5 -19t18.5 -45q0 -27 -18.5 -45.5t-45.5 -18.5zM63 0v560h132v-560h-132z" />
<glyph unicode="&#xf0;" horiz-adv-x="624" d="M63 560h217q137 0 225 -76t88 -206t-87 -204t-224 -74h-219v225h-52v115h52v220zM195 123h85q179 0 179 155q0 80 -47 119.5t-133 39.5h-84v-97h147v-115h-147v-102z" />
<glyph unicode="&#xf1;" horiz-adv-x="648" d="M456 761l22 -101q-8 -10 -30.5 -20.5t-50.5 -10.5t-74 15.5t-73 15.5q-45 0 -73 -28l-22 101q8 10 31 21t51 11t73 -15.5t74 -15.5q43 0 72 27zM585 0h-137l-252 357h-3v-4q0 -4 0.5 -10.5t0.5 -15v-20t0.5 -23t0.5 -25.5v-27v-232h-132v560h136l252 -347h3v3v9.5v13 t-0.5 17.5t-0.5 20.5v22.5v24v237h132v-560z" />
<glyph unicode="&#xf2;" horiz-adv-x="662" d="M290 789l109 -175h-124l-94 139zM31 280q0 127 85 209t215 82t215 -82t85 -209t-85 -209t-215 -82t-215 82t-85 209zM165 280q0 -76 46 -123.5t120 -47.5q73 0 119.5 47.5t46.5 123.5q0 75 -46.5 122.5t-119.5 47.5q-74 0 -120 -47t-46 -123z" />
<glyph unicode="&#xf3;" horiz-adv-x="662" d="M386 614h-125l109 175l110 -36zM31 280q0 127 85 209t215 82t215 -82t85 -209t-85 -209t-215 -82t-215 82t-85 209zM165 280q0 -76 46 -123.5t120 -47.5q73 0 119.5 47.5t46.5 123.5q0 75 -46.5 122.5t-119.5 47.5q-74 0 -120 -47t-46 -123z" />
<glyph unicode="&#xf4;" horiz-adv-x="662" d="M494 678l-61 -74l-105 80l-107 -79l-60 73l167 127zM31 280q0 127 85 209t215 82t215 -82t85 -209t-85 -209t-215 -82t-215 82t-85 209zM165 280q0 -76 46 -123.5t120 -47.5q73 0 119.5 47.5t46.5 123.5q0 75 -46.5 122.5t-119.5 47.5q-74 0 -120 -47t-46 -123z" />
<glyph unicode="&#xf5;" horiz-adv-x="662" d="M467 761l21 -101q-6 -10 -29.5 -20.5t-50.5 -10.5q-29 0 -74.5 15.5t-73.5 15.5q-44 0 -72 -28l-23 101q9 11 32 21.5t50 10.5q28 0 73 -15.5t74 -15.5q44 0 73 27zM31 280q0 127 85 209t215 82t215 -82t85 -209t-85 -209t-215 -82t-215 82t-85 209zM165 280 q0 -76 46 -123.5t120 -47.5q73 0 119.5 47.5t46.5 123.5q0 75 -46.5 122.5t-119.5 47.5q-74 0 -120 -47t-46 -123z" />
<glyph unicode="&#xf6;" horiz-adv-x="662" d="M228 627q-27 0 -45.5 18.5t-18.5 45.5q0 26 19 45t47 19q26 0 44.5 -19t18.5 -45q0 -27 -19 -45.5t-46 -18.5zM434 627q-28 0 -46.5 18.5t-18.5 45.5t18.5 45.5t46.5 18.5q26 0 45 -19t19 -45q0 -27 -19 -45.5t-45 -18.5zM31 280q0 127 85 209t215 82t215 -82t85 -209 t-85 -209t-215 -82t-215 82t-85 209zM165 280q0 -76 46 -123.5t120 -47.5q73 0 119.5 47.5t46.5 123.5q0 75 -46.5 122.5t-119.5 47.5q-74 0 -120 -47t-46 -123z" />
<glyph unicode="&#xf7;" d="M335 409q-36 0 -56 19.5t-20 49.5t20 49.5t56 19.5q35 0 54.5 -19.5t19.5 -49.5t-19.5 -49.5t-54.5 -19.5zM533 226h-398v114h398v-114zM335 20q-36 0 -56 19.5t-20 50.5q0 30 20 49t56 19q35 0 54.5 -19t19.5 -49q0 -31 -19.5 -50.5t-54.5 -19.5z" />
<glyph unicode="&#xf8;" horiz-adv-x="662" d="M600 559l-54 -70q85 -83 85 -209q0 -127 -85 -209t-215 -82q-82 0 -145 33l-53 -69l-73 54l52 68q-81 83 -81 205q0 127 85 209t215 82q76 0 141 -31l55 72zM165 280q0 -57 28 -101l201 261q-27 10 -63 10q-74 0 -120 -47t-46 -123zM331 109q73 0 119.5 47.5t46.5 123.5 q0 62 -31 105l-203 -263q32 -13 68 -13z" />
<glyph unicode="&#xf9;" horiz-adv-x="627" d="M275 789l109 -175h-124l-94 139zM571 560v-299q0 -137 -68.5 -204.5t-189.5 -67.5t-189 67.5t-68 204.5v299h134v-311q0 -140 125 -140t125 140v311h131z" />
<glyph unicode="&#xfa;" horiz-adv-x="627" d="M371 614h-124l109 175l109 -36zM571 560v-299q0 -137 -68.5 -204.5t-189.5 -67.5t-189 67.5t-68 204.5v299h134v-311q0 -140 125 -140t125 140v311h131z" />
<glyph unicode="&#xfb;" horiz-adv-x="627" d="M479 678l-60 -74l-106 80l-106 -79l-61 73l167 127zM571 560v-299q0 -137 -68.5 -204.5t-189.5 -67.5t-189 67.5t-68 204.5v299h134v-311q0 -140 125 -140t125 140v311h131z" />
<glyph unicode="&#xfc;" horiz-adv-x="627" d="M214 627q-27 0 -45.5 18.5t-18.5 45.5t19 45.5t46 18.5q26 0 44.5 -19t18.5 -45q0 -27 -19 -45.5t-45 -18.5zM419 627q-27 0 -45.5 18.5t-18.5 45.5q0 26 18.5 45t45.5 19t45.5 -19t18.5 -45q0 -27 -18.5 -45.5t-45.5 -18.5zM571 560v-299q0 -137 -68.5 -204.5 t-189.5 -67.5t-189 67.5t-68 204.5v299h134v-311q0 -140 125 -140t125 140v311h131z" />
<glyph unicode="&#xfd;" horiz-adv-x="574" d="M354 614h-124l109 175l109 -36zM352 0h-131v204l-208 356h151l69 -121q14 -25 29 -53t23 -42l8 -14h3l8 14q7 14 22.5 42.5t29.5 53.5l69 120h136l-209 -356v-204z" />
<glyph unicode="&#xfe;" horiz-adv-x="512" d="M195 457h64q109 0 169.5 -47.5t60.5 -133.5q0 -82 -60.5 -127t-169.5 -45h-64v-104h-132v560h132v-103zM195 207h69q91 0 91 67q0 66 -91 66h-69v-133z" />
<glyph unicode="&#xff;" horiz-adv-x="574" d="M197 627q-28 0 -46.5 18.5t-18.5 45.5q0 26 19 45t47 19q26 0 44.5 -19t18.5 -45q0 -27 -19 -45.5t-45 -18.5zM402 627q-28 0 -46.5 18.5t-18.5 45.5t18.5 45.5t46.5 18.5q27 0 45.5 -19t18.5 -45q0 -27 -18.5 -45.5t-45.5 -18.5zM352 0h-131v204l-208 356h151l69 -121 q14 -25 29 -53t23 -42l8 -14h3l8 14q7 14 22.5 42.5t29.5 53.5l69 120h136l-209 -356v-204z" />
<glyph unicode="&#x152;" horiz-adv-x="1014" d="M968 0h-481q-28 -4 -89 -4q-156 0 -261.5 98.5t-105.5 255.5t105.5 255.5t261.5 98.5q59 0 89 -4h477v-129h-358v-145h276v-129h-276v-168h362v-129zM171 350q0 -107 62.5 -168.5t166.5 -61.5q43 0 70 9v444q-31 7 -70 7q-104 0 -166.5 -61.5t-62.5 -168.5z" />
<glyph unicode="&#x153;" horiz-adv-x="855" d="M809 0h-402q-25 -3 -77 -3q-130 0 -214.5 78t-84.5 205t84.5 205t214.5 78q54 0 79 -3h395v-123h-293v-93h215v-117h-215v-104h298v-123zM165 280q0 -75 45 -120t122 -45q31 0 54 4v322q-23 4 -54 4q-77 0 -122 -45t-45 -120z" />
<glyph unicode="&#x178;" horiz-adv-x="694" d="M258 767q-27 0 -45.5 18.5t-18.5 45.5q0 26 19 45t46 19q26 0 44.5 -19t18.5 -45q0 -27 -18.5 -45.5t-45.5 -18.5zM463 767q-27 0 -45.5 18.5t-18.5 45.5q0 26 18.5 45t45.5 19t46 -19t19 -45q0 -27 -19 -45.5t-46 -18.5zM417 285v-285h-140v285l-264 415l161 1l124 -204 q12 -20 25.5 -42t20.5 -33l6 -11h3l7 11q6 11 18.5 32.5t25.5 41.5l128 204h149z" />
<glyph unicode="&#x2c6;" horiz-adv-x="568" d="M450 818l-60 -74l-106 80l-106 -79l-61 73l167 127z" />
<glyph unicode="&#x2dc;" horiz-adv-x="568" d="M422 901l22 -101q-6 -10 -29.5 -20.5t-51.5 -10.5t-74 15.5t-73 15.5q-44 0 -72 -28l-23 101q9 11 32 21.5t50 10.5q28 0 73 -15.5t74 -15.5q45 0 72 27z" />
<glyph unicode="&#x2000;" horiz-adv-x="479" />
<glyph unicode="&#x2001;" horiz-adv-x="959" />
<glyph unicode="&#x2002;" horiz-adv-x="479" />
<glyph unicode="&#x2003;" horiz-adv-x="959" />
<glyph unicode="&#x2004;" horiz-adv-x="319" />
<glyph unicode="&#x2005;" horiz-adv-x="239" />
<glyph unicode="&#x2006;" horiz-adv-x="159" />
<glyph unicode="&#x2007;" horiz-adv-x="159" />
<glyph unicode="&#x2008;" horiz-adv-x="119" />
<glyph unicode="&#x2009;" horiz-adv-x="191" />
<glyph unicode="&#x200a;" horiz-adv-x="53" />
<glyph unicode="&#x2010;" horiz-adv-x="574" d="M486 226h-398v114h398v-114z" />
<glyph unicode="&#x2011;" horiz-adv-x="574" d="M486 226h-398v114h398v-114z" />
<glyph unicode="&#x2012;" horiz-adv-x="574" d="M486 226h-398v114h398v-114z" />
<glyph unicode="&#x2013;" d="M579 226h-491v114h491v-114z" />
<glyph unicode="&#x2014;" horiz-adv-x="972" d="M883 226h-795v114h795v-114z" />
<glyph unicode="&#x2018;" horiz-adv-x="264" d="M153 599q24 1 38.5 -13.5t14.5 -40.5q0 -27 -20 -45t-51 -18q-37 0 -60 23.5t-23 64.5q0 45 29.5 84.5t79.5 55.5l53 -59q-21 -5 -37.5 -19.5t-23.5 -32.5z" />
<glyph unicode="&#x2019;" horiz-adv-x="264" d="M110 595q-23 -2 -37.5 13t-14.5 41q0 27 20 45t51 18q37 0 60 -24t23 -65q0 -44 -29.5 -83.5t-80.5 -55.5l-52 58q21 6 37.5 20.5t22.5 32.5z" />
<glyph unicode="&#x201a;" horiz-adv-x="264" d="M110 9q-23 -2 -37.5 13t-14.5 41q0 27 20 45t51 18q37 0 60 -24t23 -65q0 -44 -29.5 -83.5t-80.5 -55.5l-52 58q21 6 37.5 20.5t22.5 32.5z" />
<glyph unicode="&#x201c;" horiz-adv-x="478" d="M151 599q24 1 38.5 -13.5t14.5 -40.5q0 -27 -20 -45t-51 -18q-37 0 -60 23.5t-23 64.5q0 45 29.5 84.5t80.5 55.5l52 -59q-21 -5 -37.5 -19.5t-23.5 -32.5zM366 599q24 1 38.5 -13.5t14.5 -40.5q0 -27 -20 -45t-51 -18q-37 0 -60 23.5t-23 64.5q0 45 29.5 84.5t79.5 55.5 l52 -59q-20 -5 -36.5 -19.5t-23.5 -32.5z" />
<glyph unicode="&#x201d;" horiz-adv-x="478" d="M325 595q-24 -2 -38.5 13t-14.5 41q0 27 20 45t51 18q37 0 60 -24t23 -65q0 -44 -29.5 -83.5t-79.5 -55.5l-52 58q45 13 60 53zM110 595q-23 -2 -37.5 13t-14.5 41q0 27 20 45t51 18q37 0 60 -24t23 -65q0 -44 -29.5 -83.5t-80.5 -55.5l-52 58q21 6 37.5 20.5t22.5 32.5z " />
<glyph unicode="&#x201e;" horiz-adv-x="474" d="M321 9q-24 -2 -38.5 13t-14.5 41q0 27 20 45t51 18q37 0 60 -24t23 -65q0 -44 -29.5 -83.5t-80.5 -55.5l-52 58q46 13 61 53zM110 9q-23 -2 -37.5 13t-14.5 41q0 27 20 45t51 18q37 0 60 -24t23 -65q0 -44 -29.5 -83.5t-80.5 -55.5l-52 58q21 6 37.5 20.5t22.5 32.5z" />
<glyph unicode="&#x2022;" horiz-adv-x="333" d="M167 186q-46 0 -75 27.5t-29 71.5q0 43 29 70t75 27q45 0 74 -27.5t29 -69.5q0 -44 -29 -71.5t-74 -27.5z" />
<glyph unicode="&#x2026;" horiz-adv-x="748" d="M118 -11q-30 0 -46 16.5t-16 41.5q0 24 16.5 40t45.5 16q30 0 46 -15.5t16 -40.5t-16 -41.5t-46 -16.5zM369 -11q-30 0 -46 16.5t-16 41.5q0 24 16 40t46 16q29 0 45 -15.5t16 -40.5t-16 -41.5t-45 -16.5zM629 -11q-30 0 -46 16.5t-16 41.5q0 24 16 40t46 16t46 -15.5 t16 -40.5t-16 -41.5t-46 -16.5z" />
<glyph unicode="&#x202f;" horiz-adv-x="191" />
<glyph unicode="&#x2039;" horiz-adv-x="432" d="M296 514l75 -75l-163 -157v-3l164 -157l-77 -76l-235 234z" />
<glyph unicode="&#x203a;" horiz-adv-x="432" d="M137 46l-77 76l164 157v3l-163 157l75 75l236 -234z" />
<glyph unicode="&#x205f;" horiz-adv-x="239" />
<glyph unicode="&#x20ac;" horiz-adv-x="593" d="M430 174l130 -35q-21 -62 -79 -106t-155 -44q-203 0 -248 186h-47v84h36v29v13h-35v83h44q39 187 246 187q92 0 155.5 -40.5t82.5 -123.5l-130 -35q-22 81 -115 81q-79 0 -101 -69h127v-83h-139v-13q0 -5 0.5 -15t0.5 -14h138v-84h-121q27 -65 101 -65q44 0 68 14t41 50z " />
<glyph unicode="&#x2122;" horiz-adv-x="807" d="M330 700v-79h-106v-246h-85v246h-106v79h297zM744 375h-82v106v105h-1l-5 -10l-14 -28t-17 -32l-36 -68h-41l-37 68l-40 72h-1l1 -107v-106h-80v325h95l54 -99q29 -54 30 -55h1l4 8l11 22t13 25l49 99h96v-325z" />
</font>
</defs>
</svg>
